Tor Ektu Chhowa (2016) Bengali Movie DvDScr Download

Tor Ektu Chhowa (2016) Bengali Movie DvDScr Download

 

General
Format                                   : Matroska
Format version                           : Version 2
File size                                : 450 MiB
Duration                                 : 2h 26mn
Overall bit rate                         : 431 Kbps

Video
ID                                       : 1
Format                                   : AVC
Format/Info                              : Advanced Video Codec
Format profile                           : High@L4.1
Format settings, CABAC                   : Yes
Format settings, ReFrames                : 5 frames
Codec ID                                 : V_MPEG4/ISO/AVC
Duration                                 : 2h 26mn
Bit rate                                 : 365 Kbps
Width                                    : 560 pixels
Height                                   : 304 pixels
Display aspect ratio                     : 1.85:1
Frame rate mode                          : Constant
Frame rate                               : 25.000 fps
Color space                              : YUV
Chroma subsampling                       : 4:2:0
Bit depth                                : 8 bits
Scan type                                : Progressive
Bits/(Pixel*Frame)                       : 0.086
Stream size                              : 381 MiB (85%)
Default                                  : Yes
Forced                                   : No
Color range                              : Limited
Color primaries                          : BT.709
Transfer characteristics                 : BT.709
Matrix coefficients                      : BT.709

Audio
ID                                       : 2
Format                                   : AAC
Format/Info                              : Advanced Audio Codec
Format profile                           : HE-AAC / LC
Codec ID                                 : A_AAC
Duration                                 : 2h 26mn
Bit rate                                 : 64.0 Kbps
Channel(s)                               : 2 channels
Channel positions                        : Front: L R
Sampling rate                            : 48.0 KHz / 24.0 KHz
Frame rate                               : 23.438 fps (1024 spf)
Compression mode                         : Lossy
Delay relative to video                  : 31ms
Stream size                              : 66.9 MiB (15%)
Default                                  : Yes
Forced                                   : No

 

Tor Ektu Chhowa (2016) Bengali Movie DvDScr Download

http://24uploading.com/76ajr462i2b0

http://bdupload.net/c1k8rhae87qy

https://openload.co/f/mMQoKT6pw4Y

http://uptobox.com/c0z3blkbunz1

http://uploadboy.me/asevzdrtq5x8

http://www.arabloads.net/t8e6q5zz7b7j

Tor Ektu Chhowa (2016) Bengali Movie DvDScr Download

Arshinagar‬ Bengali Movie (2015) Desi DvDScr Download

Arshinagar‬ Bengali Movie (2015) Desi DvDScr Download

 

General
Format                                   : Matroska
Format version                           : Version 2
File size                                : 699 MiB
Duration                                 : 2h 44mn
Overall bit rate                         : 596 Kbps

Video
ID                                       : 1
Format                                   : AVC
Format/Info                              : Advanced Video Codec
Format profile                           : High@L4.1
Format settings, CABAC                   : Yes
Format settings, ReFrames                : 5 frames
Codec ID                                 : V_MPEG4/ISO/AVC
Duration                                 : 2h 44mn
Bit rate                                 : 514 Kbps
Width                                    : 560 pixels
Height                                   : 240 pixels
Display aspect ratio                     : 2.35:1
Frame rate mode                          : Constant
Frame rate                               : 25.000 fps
Color space                              : YUV
Chroma subsampling                       : 4:2:0
Bit depth                                : 8 bits
Scan type                                : Progressive
Bits/(Pixel*Frame)                       : 0.153
Stream size                              : 603 MiB (86%)
Default                                  : Yes
Forced                                   : No
Color range                              : Limited
Color primaries                          : BT.709
Transfer characteristics                 : BT.709
Matrix coefficients                      : BT.709

Audio
ID                                       : 2
Format                                   : AAC
Format/Info                              : Advanced Audio Codec
Format profile                           : HE-AAC / LC
Codec ID                                 : A_AAC
Duration                                 : 2h 44mn
Bit rate                                 : 80.0 Kbps
Channel(s)                               : 2 channels
Channel positions                        : Front: L R
Sampling rate                            : 48.0 KHz / 24.0 KHz
Frame rate                               : 23.438 fps (1024 spf)
Compression mode                         : Lossy
Delay relative to video                  : 31ms
Stream size                              : 93.9 MiB (13%)
Default                                  : Yes
Forced                                   : No

 

Arshinagar‬ Bengali Movie (2015) Desi DvDScr Download

http://www.indishare.com/k4wu9vkgx2tw

https://openload.co/f/BtvGsI0NapI

http://bdupload.net/10damhqn8nme

http://uptobox.com/doqb5xwzfee5

http://www.arabloads.net/er2f2ezrrcys

http://uploadboy.me/nafxjjcxf70x

Arshinagar‬ Bengali Movie (2015) Desi DvDScr Download

Monchora (2016) Bengali Movie HDCam Rip Download

Monchora (2016) Bengali Movie HDCam Rip Download

 

General
Format                                   : Matroska
Format version                           : Version 2
File size                                : 451 MiB
Duration                                 : 1h 50mn
Overall bit rate                         : 568 Kbps

Video
ID                                       : 1
Format                                   : AVC
Format/Info                              : Advanced Video Codec
Format profile                           : High@L4.1
Format settings, CABAC                   : Yes
Format settings, ReFrames                : 5 frames
Codec ID                                 : V_MPEG4/ISO/AVC
Duration                                 : 1h 50mn
Bit rate                                 : 502 Kbps
Width                                    : 560 pixels
Height                                   : 264 pixels
Display aspect ratio                     : 2.121
Frame rate mode                          : Constant
Frame rate                               : 25.000 fps
Color space                              : YUV
Chroma subsampling                       : 4:2:0
Bit depth                                : 8 bits
Scan type                                : Progressive
Bits/(Pixel*Frame)                       : 0.136
Stream size                              : 398 MiB (88%)
Default                                  : Yes
Forced                                   : No
Color range                              : Limited
Color primaries                          : BT.709
Transfer characteristics                 : BT.709
Matrix coefficients                      : BT.709

Audio
ID                                       : 2
Format                                   : AAC
Format/Info                              : Advanced Audio Codec
Format profile                           : HE-AAC / LC
Codec ID                                 : A_AAC
Duration                                 : 1h 50mn
Bit rate                                 : 64.0 Kbps
Channel(s)                               : 2 channels
Channel positions                        : Front: L R
Sampling rate                            : 48.0 KHz / 24.0 KHz
Frame rate                               : 23.438 fps (1024 spf)
Compression mode                         : Lossy
Delay relative to video                  : 31ms
Stream size                              : 50.8 MiB (11%)
Language                                 : Mongolian
Default                                  : Yes
Forced                                   : No

 

 

Monchora (2016) Bengali Movie HDCam Rip Download

File Size: 450 MB

http://www.indishare.com/vb66m762uy05

http://bdupload.net/izu9tlcjr4c6

https://openload.co/f/NiXHiLX1FdQ

http://uptobox.com/inhw7yzd592v

http://www.arabloads.net/ay2mldvl5f0r

http://uploadboy.me/xqs9ujom5258

Monchora (2016) Bengali Movie HDCam Rip Download

Rater Rajanigandha 2016 Bengali Movie HDCam Rip Download

Rater Rajanigandha 2016 Bengali Movie HDCam Rip Download

Rater Rajanigandha 2016 Bengali Movie

Movie Name: Rater Rajanigandha (2016)
Genres: Drama,Romance,Action
Language: Bangla
Quality: DVDRip
Size: 380MB
Director: Anup Sengupta
Stars: Rituparna Sengupta ,Rajesh Sharma ,Kharaj Mukherjee And Badsha Moitra

A novelist, Rahul, meets Jui and is allured by the way her life shapes up. Played by Rituparna Sengupta, Jui takes a huge step by moving to Kolkata following the demise of her parents. While in Kolkata, she begins to work as a bar singer in the city and there she meets Rajesh Sharma. The two get married, however, things get worse for her as she is forced into the world of prostitution and goes on to become an escort. Rahul, a novelist, meets her and pens her entire story which is very different from that of an ordinary girl. Rater Rajanigandha 2016 Bengali Movie HDCam Rip Download.

Rater Rajanigandha 2016 Bengali Movie HDCam Rip Download

Download Link Full Movie 350MB File

Indishare Download Link

Xupload Download Link

Bdupload Download Link

More Links

http://www.indishare.com/s35vlssutoac

https://openload.co/f/G55yqQH6zkI

http://bdupload.net/gspp0cmaum7j

http://uptobox.com/rtk53vbkdqrp

http://www.arabloads.net/4qjkox1ywtoz

http://uploadboy.me/tsqh31w70317

Rater Rajanigandha 2016 Bengali Movie HDCam Rip Download

Prem Rog (2013) Bangla Movie DVD Rip Download

Prem Rog (2013) Bangla Movie DVD Rip Download

 


General
Format                                   : MPEG-4
Format profile                           : Base Media
Codec ID                                 : isom
File size                                : 554 MiB
Duration                                 : 2h 44mn
Overall bit rate mode                    : Constant
Overall bit rate                         : 471 Kbps
Encoded date                             : UTC 2016-01-02 08:25:06
Tagged date                              : UTC 2016-01-02 08:25:06
Video
ID                                       : 1
Format                                   : AVC
Format/Info                              : Advanced Video Codec
Format profile                           : Baseline@L1.3
Format settings, CABAC                   : No
Format settings, ReFrames                : 1 frame
Format settings, GOP                     : M=1, N=33
Codec ID                                 : avc1
Codec ID/Info                            : Advanced Video Coding
Duration                                 : 2h 44mn
Source duration                          : 2h 44mn
Bit rate mode                            : Constant
Bit rate                                 : 380 Kbps
Nominal bit rate                         : 405 Kbps
Width                                    : 352 pixels
Height                                   : 288 pixels
Display aspect ratio                     : 1.222
Frame rate mode                          : Constant
Frame rate                               : 25.000 fps
Standard                                 : PAL
Color space                              : YUV
Chroma subsampling                       : 4:2:0
Bit depth                                : 8 bits
Scan type                                : Progressive
Bits/(Pixel*Frame)                       : 0.150
Stream size                              : 448 MiB (81%)
Source stream size                       : 477 MiB (86%)
Language                                 : English
Encoded date                             : UTC 2016-01-02 08:25:06
Tagged date                              : UTC 2016-01-02 08:25:06
Color range                              : Limited
mdhd_Duration                            : 9890324Audio
ID                                       : 2
Format                                   : AAC
Format/Info                              : Advanced Audio Codec
Format profile                           : LC
Codec ID                                 : 40
Duration                                 : 2h 44mn
Bit rate mode                            : Constant
Bit rate                                 : 63.1 Kbps
Channel(s)                               : 2 channels
Channel positions                        : Front: L R
Sampling rate                            : 44.1 KHz
Compression mode                         : Lossy
Stream size                              : 74.7 MiB (13%)
Language                                 : English
Encoded date                             : UTC 2016-01-02 08:25:06
Tagged date                              : UTC 2016-01-02 08:25:06
mdhd_Duration                            : 9932087

 

 

Prem Rog (2013) Bangla Movie DVD Rip Download

File Size : 550MB

http://bdupload.net/a6obpp72q5xd
http://uptobox.com/6x0ltusayua4
http://www.indishare.com/x81m7adtysnd

Prem Rog (2013) Bangla Movie DVD Rip Download

Yennai Arindhaal (2015) Tamil Movie Full DVDRip Download

Yennai Arindhaal (2015) Tamil Movie Full DVDRip Download

 

Genres: Action
Language: Tamil
Quality: DVDRip
Size: 350MB
Director: Gautam Vasudev Menon
Writers: Thiagarajan Kumararaja, Shridhar Raghavan
Stars: Ajith Kumar, Trisha Krishnan, Anushka Shetty

Yennai Arindhaal 2015 is a South Indian Tamil drama action thriller film co-written and directed by Gautham Menon, and produced by A. M. Rathnam. The film stars Ajith Kumar, Trisha Krishnan, Anushka Shetty, Arun Vijay, Parvathy Nair and Vivek.

Yennai Arindhaal’s story follows the journey of man named Sathyadev, from the age of 13 till the age of 38. It is also the final film of Menon’s police trilogy that began with Kaakha Kaakha and continued with Vettaiyaadu Vilaiyaadu.

A cop, while fighting an old rival, learns about himself.

IcnfRaD.jpgMIlr75A.jpg
THomO3S.jpgMz3PXwJ.jpg
qYcRa7L.jpgiZOldpy.jpg
XB5KNGO.jpgH9GMArF.jpg
eDa9Nto.jpg

Yennai Arindhaal (2015) Tamil Movie Full DVDRip Download

Download Links

Download From xfileload

Download From filerio

Download From 4upfiles

Download From hugefile

Download Form 180upload

Download in English Subtitles

Download From 4upfiles

Download From turbobit

Download From uptobox

Download From filerio

Download From 180upload

Download From xfileload

Download From hugefile

Download From dl.free.fr

Yennai Arindhaal (2015) Tamil Movie Full DVDRip Download

Check out the latest full HD Movie, 300MB, Trailers, Music Videos Songs, Wallpapers of the Hindi Movie on Bollywood, Hollywood and South Indian Tamil and Telugu Hindi Dubbed Movies.Yennai Arindhaal (2015) DVDRip. Category : Tamil Movies (2015) … Download Yennai Arindhaal (2015) DVDRip Full Movie in Mp4. Yennai Arindhaal (2015).Yennai Arindhaal 2015 Tamil Movie Download DVDRip 720p 500MB.Yennai Arindhaal 2015 Tamil Movie Free Download. Movie Info : Movie Name: Yennai Arindhaal Year: 2015. Director: Gautham Menon.Yennai Arindhaal (2015) Full Movie Download. Movie Name : Yennai Arindhaal.Yennai Arindhaal Tamil Full Movie Watch Online,Yennai Arindhaal Movie Watch Online DVDScr,Yennai Arindhaal (2015) Tamil Movie Online,Yennai Arindhaal HD Full Movie Watch Online,Yennai Arindhaal HD Movie Download,Yennai Arindhaal Bluray HD 720p Tamil Movie.Yennai Arindhaal (2015) DVDRip Tamil Full Movie Watch Online Watch … HD 720p Tamil Movie, Yennai Arindhaal HD Movie Download, Yennai Arindhaal

Thoppi (2015) Tamil Full Movie DVDScr Download

Thoppi (2015) Tamil Full Movie DVDScr Download

 

Genres: Drama | Romantic
Language: Tamil
Quality: DVDScr
Size: 300MB
Director: Youreka
Producer: Parama Raj
Stars: Murali Ram, Rakshaya

 

Thoppi (2015) Tamil Full Movie DVDScr Download

Select Format & Download

Thoppi (2015) Tamil Full Movie DVDScr Download

 Thoppi (2015) full movie download Thoppi (2015) bluray hdrip full movie download Thoppi (2015) hd mp4 movie download Thoppi (2015) mp4 movie,Thoppi Mp4 full movie download Thoppi Mp4 bluray hdrip full movie download Thoppi Mp4 hd mp4 movie … Thoppi2015 HDRip Tamil Movie Part (1).mp4,Thoppi (2015) [DVDScr] Tamil Full Movie. Details. Movie Name : Thoppi (2015) [DVDScr,Thoppi (2015) Full Movie Download,Download Thoppi (2015) Full Movie 3Gp,Mp4,Avi Free,Thoppi (2015) 300 mb movie ,Thoppi (2015) hd movie download,Thoppi (2015) Tamil movie movie ,Download Thoppi (2015) MP4 Full Movie 3Gp,Mp4,Avi Free,Thoppi (2015) MP4 300 mb movie ,Thoppi (2015) MP4 hd movie download,Thoppi (2015) MP4,

Rajathandhiram (2015) Tamil Full Movie HDRip Download

Rajathandhiram (2015) Tamil Full Movie HDRip Download

Rajathandhiram ராஜதந்திரம் is a 2015 Tamil heist film written and directed by debutant A. G. Amid and jointly produced by Sunland Cinemas and White Bucket Productions. Fox Star Studios acquired the distribution rights of the film. The film features Veera Bahu and Regina Cassandra in the lead roles. Sandeep Chowta composed the film score while G. V. Prakash Kumar had composed a promo song, cinematography handled by S. R. Kathir, film edited by Praveen Antony, production designed by Videsh and action sequences designed and choreographed by Silva The film released on 13 March 2015 and was a ‘Hit’ at the box office. On 13 March 2016, the team announced the launch of Rajathandhiram 2 with a first six-minute video clip on YouTube.Rajathandhiram (2015) Tamil Full Movie HDRip Download.

Rajathandhiram (2015) Tamil Full Movie

Genres: Romance | Thriller
Language: Tamil
Quality: DVDScr
Size: 700MB
Director: Amit A G
Producer: Senthil Veeraasamy
Stars: Veera, Regina Cassandra, Pattiyal Sekar, Ilavarasu.

Arjun (Veera Bahu) and his two friends make a living out of conning people for a few thousands and are quite good at it. When Arjun falls for a girl, Michelle (Regina Cassandra), he agrees to Deva’s (Ajai Prasath) plan of stepping up to nail a big con job so that he can help her financially. The con job sets off a chain of events that lead to a riveting cat-and-mouse game with a heist at its fulcrum.Rajathandhiram (2015) Tamil Full Movie HDRip Download.

Rajathandhiram (2015) Tamil Full Movie HDRip Download

Select Format & Download

Rajathandhiram (2015) Tamil Full Movie HDRip Download

JK Enum Nanbanin Vaazhkai (2015) Tamil DVDRip Download

JK Enum Nanbanin Vaazhkai (2015) Tamil DVDRip Download

 

 

Movie Name : JK Enum Nanbanin Vaazhkai (2015)

Category : Tamil Movies

Source : DVDRip

Genre :Romance

Starcast : Sharvanand, Nithya Menon, Prakash Raj

Description : Jayakumar -‘JK’ in short, is that typical young man of this generation who cares more for worldly pleasures such as girls and parties, has scant respect for his family and spends most of his time wooing girls on the internet. But all this changes drastically when one such party ends in tragedy. The physical and emotional trauma forces him to rethink his lifestyle and he begins his quest for an honest yet quickly rewarding career to meet his family needs. The inspiring show he puts on despite numerous challenges is what the rest of ‘JK’ is all about

Duration :

 

 

JK Enum Nanbanin Vaazhkai (2015) Tamil DVDRip Download

Select Format & Download

Download Links:400 MB

Download From Indishare
Download From Userscloud
Download From Uptobox
Download From Bdupload

JK Enum Nanbanin Vaazhkai (2015) Tamil DVDRip Download

Tags: JK Enum Nanbanin Vaazhkai (2015) Full Movie Download ,JK Enum Nanbanin Vaazhkai (2015) 300MB MKV,JK Enum Nanbanin Vaazhkai (2015) MP4 Movie,JK Enum Nanbanin Vaazhkai (2015) MoviesMobile.net, Mp4Mobilemovies.net JK Enum Nanbanin Vaazhkai (2015), CoolMoviez.co JK Enum Nanbanin Vaazhkai (2015) Full Movie Download, JK Enum Nanbanin Vaazhkai (2015) WorldFree4u.com, JK Enum Nanbanin Vaazhkai (2015) Worldfree4u,JK Enum Nanbanin Vaazhkai Mp4 full movie download JK Enum Nanbanin VaazhkaiTamil HD Movies … JK Enum Nanbanin Vaazhkai HDRip Movie Part (4).mp4 … JK Enum Nanbanin Vaazhkai (2015JK Enum Nanbanin Vaazhkai Mp4.Jayakumar -‘JK’ in short, is that typical young man of this generation who cares more for worldly pleasures such as girls and parties, has scant respect for … JK Enum Nanbanin Vaazhkai (2015) …. Tamiluku En Ondrai Aluthavum ….. Download.JK Enum Nanbanin Vaazhkai (2015) Full Movie Download. Movie Name : JK Enum Nanbanin Vaazhkai (2015); Category : Tamil Movies; Source : DVDRip …Enum.Nanbanin.Vaazhkai.HD.DVD.x264.MKV.400MB JK.Enum.Nanbanin.Vaazhkai.HD. … Posted by Andrea on March 7, 2015 Leave a comment (0) Go to comments. Direct Download Links. JK. … Tamil Movies.Download JK Enum Nanbanin Vaazhkai English Subtitles. … TamilRockers.com – JK Enum Nanbanin Vaazhkai (2015)[DVDRip XviD 1CDRip 700MB ESubs

En Vazhi Thani Vazhi (2015) Tamil Movie DVDScr Download

En Vazhi Thani Vazhi (2015) Tamil Movie DVDScr Download

 

Movie Name : En Vazhi Thani Vazhi (2015)
Category : Tamil Movies
Source : DVD
Release Date : March 6, 2015
Genre : Action | Drama | Thriller
Starcast : R. K., Poonam Kaur, Meenakshi Dixit, Radha Ravi, Ashish Vidyarthi, Thalaivasal Vijay, Seetha, Roja
Description : En Vazhi Thani Vazhi is an upcoming Tamil-language film directed by Shaji Kailas, starring R. K. in lead role, supported by Meenakshi Dixit, Radha Ravi and Ashish Vidyarthi. The film is the remake of Bollywood film Ab Tak Chhappan.

 

En Vazhi Thani Vazhi (2015) Tamil Movie DVDScr Download

Select Format & Download

En Vazhi Thani Vazhi (2015) Tamil Movie DVDScr Download

Tags: En Vazhi Thani Vazhi (2015) DVD Movie Download, 3gp, mp4, movies, hd, mobile, free, download,En Vazhi Thani Vazhi (2015) Movie Mp4 & 3gp Free Download.En Vazhi Thani Vazhi (2015) full movie download En Vazhi Thani Vazhi (2015) bluray hdrip full movie download En Vazhi Thani Vazhi (2015) hd mp4 movie.En Vazhi Thani Vazhi HD Tamil Full Movie Online,En Vazhi Thani Vazhi … Tamil Movie Watch Online Tamil DVDRip Movies Free Download .En Vazhi Thani Vazhi Full Movie Watch Online DVDScr,En Vazhi Thani … Tamil Full Movie Watch Online Tamil New Movies Free Download.En Vazhi Thani Vazhi (2015) DVDRip – Tamil Full Movie.Download En Vazhi Thani Vazhi 2015 Full Movie 3Gp,Mp4,Avi Free,En Vazhi Thani Vazhi 2015 300 mb movie ,En Vazhi Thani Vazhi 2015 hd movie download.En Vazhi Thani VazhiServer:1 Server:2En Vazhi Thani Vazhi online,En … download En Vazhi Thani Vazhi full movie, En Vazhi Thani Vazhi.En Vazhi Thani Vazhi (2015) Tamil Movie 300MB DVDScr.MoviesMaza.IN Mp4mobilemovies & 3gpmobilemovies. En Vazhi Thani Vazhi (2015) Movie Mp4 & 3gp Free Download. En Vazhi Thani Vazhi (2015).